Torrent’s details
Name South.African.PSL.2019.11.30.Polokwane.City.vs.Bloemfontein.Celtic.Highlights.720p.WEB.x264-VLF
Image
Description South.African.PSL.2019.11.30.Polokwane.City.vs.Bloemfontein.Celtic.Highlights.720p.WEB.x264-VLF

Release Details
Network: Supersport
Language: English
Notes: Official Highlights, Adverts Removed

Do not re-upload elsewhere without permission!
This includes other torrent sites, Usenet, direct download links, etc.

Media Info:
General
Complete name                            : PSL.2019.11.30.Polokwane.City.vs.Bloemfontein.Celtic.SUPERSPORT.Highlights.720p-EN.mp4
Format                                   : MPEG-4
Format profile                           : Base Media
Codec ID                                 : isom (isom/iso2/avc1/mp41)
File size                                : 489 MiB
Duration                                 : 26mn 27s
Overall bit rate mode                    : Variable
Overall bit rate                         : 2 582 Kbps
Encoded date                             : UTC 1904-01-01 00:00:00
Tagged date                              : UTC 1904-01-01 00:00:00
Writing application                      : Lavf57.83.100

Video
ID                                       : 1
Format                                   : AVC
Format/Info                              : Advanced Video Codec
Format profile                           : Main@L3.1
Format settings, CABAC                   : Yes
Format settings, ReFrames                : 5 frames
Codec ID                                 : avc1
Codec ID/Info                            : Advanced Video Coding
Duration                                 : 26mn 27s
Bit rate mode                            : Variable
Bit rate                                 : 2 515 Kbps
Maximum bit rate                         : 2 800 Kbps
Width                                    : 1 280 pixels
Height                                   : 720 pixels
Display aspect ratio                     : 16:9
Frame rate mode                          : Variable
Frame rate                               : 25.000 fps
Minimum frame rate                       : 3.409 fps
Maximum frame rate                       : 25.000 fps
Standard                                 : Component
Color space                              : YUV
Chroma subsampling                       : 4:2:0
Bit depth                                : 8 bits
Scan type                                : Progressive
Bits/(Pixel*Frame)                       : 0.109
Stream size                              : 476 MiB (97%)
Encoded date                             : UTC 1904-01-01 00:00:00
Tagged date                              : UTC 1904-01-01 00:00:00
Color range                              : Limited
Color primaries                          : BT.709
Transfer characteristics                 : BT.709
Matrix coefficients                      : BT.709

Audio
ID                                       : 2
Format                                   : AAC
Format/Info                              : Advanced Audio Codec
Format profile                           : HE-AAC / LC
Codec ID                                 : 40
Duration                                 : 26mn 27s
Bit rate mode                            : Variable
Bit rate                                 : 62.7 Kbps
Maximum bit rate                         : 68.1 Kbps
Channel(s)                               : 2 channels
Channel positions                        : Front: L R
Sampling rate                            : 48.0 KHz / 24.0 KHz
Frame rate                               : 23.438 fps (1024 spf)
Compression mode                         : Lossy
Stream size                              : 11.9 MiB (2%)
Default                                  : Yes
Alternate group                          : 1
Encoded date                             : UTC 1904-01-01 00:00:00
Tagged date                              : UTC 1904-01-01 00:00:00


Category International Soccer
Rating N/A
Size 488.68 MB
Show/Hide Files
1 file