Torrent’s details
Name MLB 2018/05/13 | RS | Boston Red Sox vs Toronto Blue Jays | 3/3 | 720p30 EN | SN
Description Format : Matroska
Format version : Version 4 / Version 2
File size: 4.50 GiB
Duration : 3 h 4 min
Overall bit rate : 3 497 kb/s
Encoded date : UTC 2018-05-14 06:08:57
Writing application: mkvmerge v23.0.0 ( 'The Bride Said No' ) 32-bit
Writing library: libebml v1.3.6 + libmatroska v1.4.9

Video
ID : 2
Format : AVC
Format/Info: Advanced Video Codec
Format profile : High@L4
Format settings: CABAC / 4 Ref Frames
Format settings, CABAC : Yes
Format settings, RefFrames : 4 frames
Codec ID : V_MPEG4/ISO/AVC
Duration : 3 h 4 min
Bit rate mode: Constant
Bit rate : 3 372 kb/s
Width: 1 280 pixels
Height : 720 pixels
Display aspect ratio : 16:9
Frame rate mode: Constant
Frame rate : 29.970 (29970/1000) FPS
Original frame rate: 29.970 (30000/1001) FPS
Color space: YUV
Chroma subsampling : 4:2:0
Bit depth: 8 bits
Scan type: Progressive
Bits/(Pixel*Frame) : 0.122
Stream size: 4.33 GiB (96%)
Default: Yes
Forced : No

Audio
ID : 1
Format : AAC
Format/Info: Advanced Audio Codec
Format profile : LC
Codec ID : A_AAC-2
Duration : 3 h 4 min
Bit rate : 125 kb/s
Channel(s) : 2 channels
Channel positions: Front: L R
Sampling rate: 48.0 kHz
Frame rate : 46.875 FPS (1024 SPF)
Compression mode : Lossy
Delay relative to video: 15 ms
Stream size: 165 MiB (4%)
Default: Yes
Forced : No

Category MLB/Baseball
Rating N/A
Size 4.50 GB
Show/Hide Files
1 file