Torrent’s details
Name NCAA 2011/01/10 BCS National Championship Auburn vs. Oregon | 1080i 25fps ESPN America
Image
Description General
ID                                       : 1 (0x1)
Format                                   : MPEG-TS
File size                                : 2.75 GiB
Duration                                 : 3 h 15 min
Overall bit rate mode                    : Variable
Overall bit rate                         : 17.6 Mb/s

Video
ID                                       : 767 (0x2FF)
Menu ID                                  : 1 (0x1)
Format                                   : AVC
Format/Info                              : Advanced Video Codec
Format profile                           : High@L4
Format settings                          : CABAC / 3 Ref Frames
Format settings, CABAC                   : Yes
Format settings, Reference frames        : 3 frames
Codec ID                                 : 27
Duration                                 : 3 h 15 min
Bit rate                                 : 16.3 Mb/s
Width                                    : 1 920 pixels
Height                                   : 1 080 pixels
Display aspect ratio                     : 16:9
Frame rate                               : 25.000 FPS
Standard                                 : Component
Color space                              : YUV
Chroma subsampling                       : 4:2:0
Bit depth                                : 8 bits
Scan type                                : Interlaced
Scan type, store method                  : Separated fields
Scan order                               : Top Field First
Bits/(Pixel*Frame)                       : 0.314
Stream size                              : 2.55 GiB (93%)
Color range                              : Limited
Color primaries                          : BT.709
Transfer characteristics                 : BT.709
Matrix coefficients                      : BT.709

Audio
ID                                       : 771 (0x303)
Menu ID                                  : 1 (0x1)
Format                                   : AC-3
Format/Info                              : Audio Coding 3
Commercial name                          : Dolby Digital
Codec ID                                 : 129
Duration                                 : 22 min 24 s
Bit rate mode                            : Constant
Bit rate                                 : 384 kb/s
Channel(s)                               : 2 channels
Channel layout                           : L R
Sampling rate                            : 48.0 kHz
Frame rate                               : 31.250 FPS (1536 SPF)
Compression mode                         : Lossy
Stream size                              : 61.5 MiB (2%)
Language                                 : English
Service kind                             : Complete Main
Category NCAA Basket/Football
Rating N/A
Size 25.99 GB
Show/Hide Files
4 files