Torrent’s details
Name Formula 1 2018/06/07 Canadian Grand Prix DPC 1080p HDTV 50fps ENG | Movistar F1
Description The Canadian Grand Prix Drivers Press Conference in Montréal



General
Complete name : Formula1.2018.Canadian.Grand.Prix.Drivers.Press.Conference.1080p.HDTV.x264-GRiP.mkv
Format : Matroska
Format version : Version 4 / Version 2
File size : 646 MiB
Duration : 17mn 37s
Overall bit rate : 5 123 Kbps
Movie name : Formula1 2018 Canadian Grand Prix Drivers Press Conference
Writing application : https://www.youtube.com/watch?v=QvpEQ2jrUP0
Writing library : Silent Siren - School Girl War
Tool : Multi Group Release Encoder v17.2

Video
ID : 1
Format : AVC
Format/Info : Advanced Video Codec
Format profile : High@L4.2
Format settings, CABAC : Yes
Format settings, ReFrames : 4 frames
Codec ID : V_MPEG4/ISO/AVC
Duration : 17mn 37s
Bit rate : 4 893 Kbps
Width : 1 918 pixels
Height : 1 078 pixels
Display aspect ratio : 16:9
Frame rate mode : Constant
Frame rate : 50.000 fps
Color space : YUV
Chroma subsampling : 4:2:0
Bit depth : 8 bits
Scan type : Progressive
Bits/(Pixel*Frame) : 0.047
Stream size : 617 MiB (96%)
Writing library : x264 core 155 r2901 7d0ff22
Encoding settings : cabac=1 / ref=4 / deblock=1:0:0 / analyse=0x3:0x113 / me=hex / subme=8 / psy=1 /
psy_rd=1.00:0.00 / mixed_ref=1 / me_range=16 / chroma_me=1 / trellis=2 / 8x8dct=1 / cqm=0 / deadzone=21,11 /
fast_pskip=1 / chroma_qp_offset=-2 / threads=12 / lookahead_threads=2 / sliced_threads=0 / nr=0 / decimate=1 /
interlaced=0 / bluray_compat=0 / constrained_intra=0 / bframes=3 / b_pyramid=2 / b_adapt=1 / b_bias=0 / direct=3 /
weightb=1 / open_gop=0 / weightp=2 / keyint=250 / keyint_min=25 / scenecut=40 / intra_refresh=0 / rc_lookahead=50 /
rc=crf / mbtree=1 / crf=20.0 / qcomp=0.60 / qpmin=0 / qpmax=69 / qpstep=4 / ip_ratio=1.40 / aq=1:1.00
Language : English
Default : Yes
Forced : No
Color range : Limited
Matrix coefficients : BT.709

Audio
ID : 2
Format : MPEG Audio
Format version : Version 1
Format profile : Layer 2
Codec ID : A_MPEG/L2
Codec ID/Hint : MP2
Duration : 17mn 37s
Bit rate mode : Constant
Bit rate : 128 Kbps
Channel(s) : 2 channels
Sampling rate : 48.0 KHz
Compression mode : Lossy
Stream size : 16.1 MiB (2%)
Language : English
Default : Yes
Forced : No


Respect to the GRiP!  cool1.gif
Category Formula1
Rating N/A
Size 645.66 MB
Show/Hide Files
1 file