Torrent’s details
Name Christmas Classics 2003 - Cleveland @ Orlando - Lebron vs T-Mac 720p60fps
Image
Description





Format                         : MPEG-4
Format profile                 : Base Media / Version 2
Codec ID                       : mp42 (isom/iso2/avc1)
File size                      : 4.44 GiB
Duration                       : 1 h 42 min
Overall bit rate mode          : Constant
Overall bit rate               : 6 193 kb/s
Encoded date                   : UTC 2020-01-12 23:55:41
Tagged date                    : UTC 2020-01-12 23:55:41
Writing application            : HandBrake 1.2.2 2019022300

Video
ID                             : 1
Format                         : AVC
Format/Info                    : Advanced Video Codec
Format profile                 : Main@L3.2
Format settings, CABAC         : Yes
Format settings, RefFrames     : 1 frame
Codec ID                       : avc1
Codec ID/Info                  : Advanced Video Coding
Duration                       : 1 h 42 min
Bit rate mode                  : Constant
Bit rate                       : 6 000 kb/s
Width                          : 1 280 pixels
Height                         : 720 pixels
Display aspect ratio           : 16:9
Frame rate mode                : Variable
Frame rate                     : 59.940 (60000/1001) FPS
Minimum frame rate             : 59.920 FPS
Maximum frame rate             : 59.960 FPS
Color space                    : YUV
Chroma subsampling             : 4:2:0
Bit depth                      : 8 bits
Scan type                      : Progressive
Bits/(Pixel*Frame)             : 0.109
Stream size                    : 4.30 GiB (97%)
Encoded date                   : UTC 2020-01-12 23:55:41
Tagged date                    : UTC 2020-01-12 23:55:41
Color range                    : Limited
Color primaries                : BT.709
Transfer characteristics       : BT.709
Matrix coefficients            : BT.709

Audio
ID                             : 2
Format                         : AAC
Format/Info                    : Advanced Audio Codec
Format profile                 : LC
Codec ID                       : 40
Duration                       : 1 h 42 min
Bit rate mode                  : Constant
Bit rate                       : 178 kb/s
Channel(s)                     : 2 channels
Channel positions              : Front: L R
Sampling rate                  : 48.0 kHz
Frame rate                     : 46.875 FPS (1024 SPF)
Compression mode               : Lossy
Stream size                    : 130 MiB (3%)
Language                       : English
Default                        : Yes
Alternate group                : 1
Encoded date                   : UTC 2020-01-12 23:55:41
Tagged date                    : UTC 2020-01-12 23:55:41
Category NBA/WNBA
Rating N/A
Size 4.44 GB
Show/Hide Files
1 file