Torrent’s details
Name Liverpool FC Season Review 1992-93 XviD 480p
Description Format                                   : AVI
Format/Info                              : Audio Video Interleave
File size                                : 699 MiB
Duration                                 : 1 h 28 min
Overall bit rate mode                    : Variable
Overall bit rate                         : 1 109 kb/s
Writing application                      : VirtualDubMod 1.5.4.1 (build 2178/release)
Writing library                          : VirtualDubMod build 2178/release

Video
ID                                       : 0
Format                                   : MPEG-4 Visual
Format profile                           : Simple@L3
Format settings                          : BVOP1 / Custom Matrix
Format settings, BVOP                    : 1
Format settings, QPel                    : No
Format settings, GMC                     : No warppoints
Format settings, Matrix                  : Custom
Codec ID                                 : XVID
Codec ID/Hint                            : XviD
Duration                                 : 1 h 28 min
Bit rate                                 : 1 044 kb/s
Width                                    : 640 pixels
Height                                   : 480 pixels
Display aspect ratio                     : 4:3
Frame rate                               : 25.000 FPS
Color space                              : YUV
Chroma subsampling                       : 4:2:0
Bit depth                                : 8 bits
Scan type                                : Progressive
Compression mode                         : Lossy
Bits/(Pixel*Frame)                       : 0.136
Stream size                              : 658 MiB (94%)
Writing library                          : XviD 1.1.0 Beta2 (UTC 2005-04-04)

Audio
ID                                       : 1
Format                                   : MPEG Audio
Format version                           : Version 2
Format profile                           : Layer 3
Format settings                          : Joint stereo / MS Stereo
Codec ID                                 : 55
Codec ID/Hint                            : MP3
Duration                                 : 1 h 28 min
Bit rate mode                            : Variable
Bit rate                                 : 52.7 kb/s
Nominal bit rate                         : 48.0 kb/s
Channel(s)                               : 2 channels
Sampling rate                            : 22.05 kHz
Frame rate                               : 38.281 FPS (576 SPF)
Compression mode                         : Lossy
Delay relative to video                  : 209 ms
Stream size                              : 33.2 MiB (5%)
Alignment                                : Split across interleaves
Interleave, duration                     : 26  ms (0.65 video frame)
Interleave, preload duration             : 1086  ms
Writing library                          : LAME3.96r
Encoding settings                        : -m j -V 4 -q 2 -lowpass 7.5 --abr 48

Category European Soccer
Rating N/A
Size 698.95 MB
Show/Hide Files
1 file