Torrent’s details
Name MLB 2021 08/05 Washington Nationals vs New York Yankees (2/3) | 720p60 EN | YES
Description Format: Matroska
Format version: Version 4
File size: 7.67 GiB
Duration: 3 h 16 min
Overall bit rate: 5 574 kb/s
Encoded date: UTC 2021-05-09 09:51:53
Writing application: mkvmerge v50.0.0 (Awakenings) 64-bit
Writing library: libebml v1.4.0 + libmatroska v1.6.2

Video
ID: 1
Format: AVC
Format/Info: Advanced Video Codec
Format profile: High@L4.1
Format settings: CABAC / 4 Ref Frames
Format settings, CABAC: Yes
Format settings, RefFrames: 4 frames
Codec ID: V_MPEG4/ISO/AVC
Duration: 3 h 16 min
Bit rate mode: Constant
Bit rate: 5 472 kb/s
Width: 1 280 pixels
Height: 720 pixels
Display aspect ratio: 16:9
Frame rate mode: Constant
Frame rate: 59.940 (59940/1000) FPS
Original frame rate: 59.940 (60000/1001) FPS
Color space: YUV
Chroma subsampling: 4:2:0
Bit depth: 8 bits
Scan type: Progressive
Bits/(Pixel*Frame): 0.099
Stream size: 7.49 GiB (98%)
Default: Yes
Forced: No

Audio
ID: 2
Format: AAC LC
Format/Info: Advanced Audio Codec Low Complexity
Codec ID: A_AAC-2
Duration: 3 h 16 min
Bit rate: 125 kb/s
Channel(s): 2 channels
Channel layout: L R
Sampling rate: 48.0 kHz
Frame rate: 46.875 FPS (1024 SPF)
Compression mode: Lossy
Delay relative to video: 1 ms
Stream size: 177 MiB (2%)
Default: Yes
Forced: No
Category MLB/Baseball
Rating N/A
Size 7.67 GB
Show/Hide Files
1 file