Torrent’s details
Name NBA RS 2010 Boston Celtics vs Chicago Bulls 30/10/2009 576iRu25fps I NTV+ Donskoi
Image
Description Translation: Russia Sport
Language: Russian
Commentator: Dmitry Donskoi
No commercials
Full game

Complete name: J:2009-10-30.Celtics.vs.Bulls.Russian.Donskoi.mpg
Format                                   : MPEG-PS
File size                                : 3.55 GiB
Duration                                 : 1 h 34 min
Overall bit rate mode                    : Variable
Overall bit rate                         : 5 363 kb/s
Writing library                          : (dvd5: Oct 19 2015)

Video
ID                                       : 224 (0xE0)
Format                                   : MPEG Video
Format version                           : Version 2
Format profile                           : Main@Main
Format settings                          : CustomMatrix / BVOP
Format settings, BVOP                    : Yes
Format settings, Matrix                  : Custom
Format settings, GOP                     : M=3, N=15
Format settings, picture structure       : Frame
Duration                                 : 1 h 34 min
Bit rate mode                            : Variable
Bit rate                                 : 5 000 kb/s
Maximum bit rate                         : 7 500 kb/s
Width                                    : 720 pixels
Height                                   : 576 pixels
Display aspect ratio                     : 4:3
Frame rate                               : 25.000 FPS
Standard                                 : PAL
Color space                              : YUV
Chroma subsampling                       : 4:2:0
Bit depth                                : 8 bits
Scan type                                : Interlaced
Scan order                               : Top Field First
Compression mode                         : Lossy
Bits/(Pixel*Frame)                       : 0.482
Time code of first frame                 : 00:00:00:00
Time code source                         : Group of pictures header
Stream size                              : 3.31 GiB (93%)
Writing library                          : (dvd5: Oct 19 2015)

Audio
ID                                       : 189 (0xBD)-128 (0x80)
Format                                   : AC-3
Format/Info                              : Audio Coding 3
Commercial name                          : Dolby Digital
Muxing mode                              : DVD-Video
Duration                                 : 1 h 34 min
Bit rate mode                            : Constant
Bit rate                                 : 256 kb/s
Channel(s)                               : 2 channels
Channel layout                           : L R
Sampling rate                            : 48.0 kHz
Frame rate                               : 31.250 FPS (1536 SPF)
Bit depth                                : 16 bits
Compression mode                         : Lossy
Delay relative to video                  : -80 ms
Stream size                              : 173 MiB (5%)
Service kind                             : Complete Main
Category NBA/WNBA
Rating N/A
Size 3.55 GB
Show/Hide Files
1 file