Torrent’s details
Name CEV.EuroVolley.Womens.2021.08.19.Serbia.vs.Bosnia.Herzegovina.STADIUM.720p30.WEBRip.x264
Image
Description CEV.EuroVolley.Womens.2021.08.19.Serbia.vs.Bosnia.Herzegovina.STADIUM.720p30.WEBRip.x264

Release Details
Network: YouTube
Language: Stadium Sound
Notes: Full Match

Do not re-upload elsewhere without permission!
This includes other torrent sites, Usenet, direct download links, etc.

Media Info:
General
Complete name                            : CEV.EuroVolley.2021.08.19.Serbia.vs.Bosnia.YT.720p30-STA.mp4
Format                                   : MPEG-4
Format profile                           : Base Media
Codec ID                                 : isom (isom/iso2/avc1/mp41)
File size                                : 1.47 GiB
Duration                                 : 1h 44mn
Overall bit rate                         : 2 016 Kbps
Encoded date                             : UTC 1904-01-01 00:00:00
Tagged date                              : UTC 1904-01-01 00:00:00
Writing application                      : Lavf57.83.100

Video
ID                                       : 1
Format                                   : AVC
Format/Info                              : Advanced Video Codec
Format profile                           : High@L3.1
Format settings, CABAC                   : Yes
Format settings, ReFrames                : 3 frames
Codec ID                                 : avc1
Codec ID/Info                            : Advanced Video Coding
Duration                                 : 1h 44mn
Bit rate                                 : 1 880 Kbps
Width                                    : 1 280 pixels
Height                                   : 720 pixels
Display aspect ratio                     : 16:9
Frame rate mode                          : Constant
Frame rate                               : 30.000 fps
Color space                              : YUV
Chroma subsampling                       : 4:2:0
Bit depth                                : 8 bits
Scan type                                : Progressive
Bits/(Pixel*Frame)                       : 0.068
Stream size                              : 1.37 GiB (93%)
Encoded date                             : UTC 1904-01-01 00:00:00
Tagged date                              : UTC 1904-01-01 00:00:00
Color range                              : Limited
Color primaries                          : BT.709
Transfer characteristics                 : BT.709
Matrix coefficients                      : BT.709

Audio
ID                                       : 2
Format                                   : AAC
Format/Info                              : Advanced Audio Codec
Format profile                           : LC
Codec ID                                 : 40
Duration                                 : 1h 44mn
Bit rate mode                            : Constant
Bit rate                                 : 128 Kbps
Channel(s)                               : 2 channels
Channel positions                        : Front: L R
Sampling rate                            : 44.1 KHz
Frame rate                               : 43.066 fps (1024 spf)
Compression mode                         : Lossy
Stream size                              : 95.3 MiB (6%)
Language                                 : English
Default                                  : Yes
Alternate group                          : 1
Encoded date                             : UTC 1904-01-01 00:00:00
Tagged date                              : UTC 1904-01-01 00:00:00


Category Volleyball/Beach
Rating
Size 1.47 GB
Show/Hide Files
1 file