Torrent’s details
Name MLB 2019 09/09 Boston Red Sox vs. New York Yankees 720p 30fps eng YES
Description File size: 4.22 GiB
Duration : 2 h 25 min
Overall bit rate : 4 141 kb/s
Encoded date : UTC 2019-09-10 06:44:20
Writing application: mkvmerge v28.1.0 (Morning Child) 64-bit
Writing library: libebml v1.3.6 + libmatroska v1.4.9

Video
ID : 1
Format : AVC
Format/Info: Advanced Video Codec
Format profile : High@L3.1
Format settings: CABAC / 4 Ref Frames
Format settings, CABAC : Yes
Format settings, RefFrames : 4 frames
Format settings, GOP : M=4, N=60
Codec ID : V_MPEG4/ISO/AVC
Duration : 2 h 25 min
Bit rate mode: Constant
Bit rate : 4 000 kb/s
Width: 1 280 pixels
Height : 720 pixels
Display aspect ratio : 16:9
Frame rate mode: Constant
Frame rate : 29.970 (29970/1000) FPS
Original frame rate: 29.970 (30000/1001) FPS
Color space: YUV
Chroma subsampling : 4:2:0
Bit depth: 8 bits
Scan type: Progressive
Bits/(Pixel*Frame) : 0.145
Stream size: 4.09 GiB (97%)
Default: Yes
Forced : No

Audio
ID : 2
Format : AAC LC
Format/Info: Advanced Audio Codec Low Complexity
Codec ID : A_AAC-2
Duration : 2 h 25 min
Bit rate : 126 kb/s
Channel(s) : 2 channels
Channel layout : L R
Sampling rate: 44.1 kHz
Frame rate : 43.066 FPS (1024 SPF)
Compression mode : Lossy
Delay relative to video: 10 ms
Stream size: 131 MiB (3%)
Default: Yes
Forced : No
Category MLB/Baseball
Rating N/A
Size 4.22 GB
Show/Hide Files
1 file