Torrent’s details
Name Detail From the Mind of Kobe Bryant S02E05 Breaking Down Arike Ogunbowale 720p WEB-DL x264-DT24
Image
Description General
Complete name: Detail.From.the.Mind.of.Kobe.Bryant.S02E05.720p.WEB-DL.x264-DT24.mkv
Format: Matroska
Format version: Version 4
File size: 524 MiB
Duration: 11 min 40 s
Overall bit rate: 6 272 kb/s
Movie name: Breaking Down Arike Ogunbowale
Encoded date: UTC 2019-05-16 11:46:37
Writing application: mkvmerge v26.0.0 ('In The Game'wink.gif 64-bit
Writing library: libebml v1.3.6 + libmatroska v1.4.9

Video
ID: 2
Format: AVC
Format/Info: Advanced Video Codec
Format profile: High@L4
Format settings: CABAC / 4 Ref Frames
Format settings, CABAC: Yes
Format settings, Reference frames: 4 frames
Codec ID: V_MPEG4/ISO/AVC
Duration: 11 min 40 s
Bit rate mode: Constant
Bit rate: 6 142 kb/s
Nominal bit rate: 6 872 kb/s
Width: 1 280 pixels
Height: 720 pixels
Display aspect ratio: 16:9
Frame rate mode: Constant
Frame rate: 59.940 (60000/1001) FPS
Color space: YUV
Chroma subsampling: 4:2:0
Bit depth: 8 bits
Scan type: Progressive
Bits/(Pixel*Frame): 0.111
Stream size: 513 MiB (98%)
Default: Yes
Forced: No

Audio
ID: 1
Format: AAC LC
Format/Info: Advanced Audio Codec Low Complexity
Codec ID: A_AAC-2
Duration: 11 min 40 s
Bit rate: 125 kb/s
Channel(s): 2 channels
Channel layout: L R
Sampling rate: 48.0 kHz
Frame rate: 46.875 FPS (1024 SPF)
Compression mode: Lossy
Delay relative to video: 21 ms
Stream size: 10.5 MiB (2%)
Language: English
Default: Yes
Forced: No
Category NBA/WNBA
Rating N/A
Size 523.88 MB
Show/Hide Files
1 file