Torrent’s details
Name NBA Playoffs 2021 ECF G3 Milwaukee Bucks@Atlanta Hawks.1080pEN60fps.mkv
Description General
Unique ID                      : 222402021583766100742062894366793031653 (0xA75112411CE3534AC86283A15F6A5FE5)
Complete name                  : F:迅雷下载Milwaukee Bucks at Atlanta Hawks 27.06.21.mkv
Format                         : Matroska
Format version                 : Version 4
File size                      : 4.53 GiB
Duration                       : 1 h 40 min
Overall bit rate mode          : Variable
Overall bit rate               : 6 427 kb/s
Encoded date                   : UTC 2021-06-28 04:33:51
Writing application            : mkvmerge v50.0.0 ('Awakenings'wink.gif 64-bit
Writing library                : libebml v1.4.0 + libmatroska v1.6.2

Video
ID                             : 1
Format                         : AVC
Format/Info                    : Advanced Video Codec
Format profile                 : Main@L4.2
Format settings                : CABAC / 4 Ref Frames
Format settings, CABAC         : Yes
Format settings, Reference fra : 4 frames
Codec ID                       : V_MPEG4/ISO/AVC
Duration                       : 1 h 40 min
Bit rate mode                  : Variable
Bit rate                       : 6 329 kb/s
Maximum bit rate               : 8 000 kb/s
Width                          : 1 920 pixels
Height                         : 1 080 pixels
Display aspect ratio           : 16:9
Frame rate mode                : Constant
Frame rate                     : 59.940 (59940/1000) FPS
Original frame rate            : 59.940 (60000/1001) FPS
Standard                       : Component
Color space                    : YUV
Chroma subsampling             : 4:2:0
Bit depth                      : 8 bits
Scan type                      : Progressive
Bits/(Pixel*Frame)             : 0.051
Stream size                    : 4.46 GiB (98%)
Default                        : Yes
Forced                         : No
Color range                    : Limited
Color primaries                : BT.709
Transfer characteristics       : BT.709
Matrix coefficients            : BT.709

Audio
ID                             : 2
Format                         : AAC LC SBR
Format/Info                    : Advanced Audio Codec Low Complexity with Spectral Band Replication
Commercial name                : HE-AAC
Format settings                : Implicit
Codec ID                       : A_AAC-2
Duration                       : 1 h 40 min
Bit rate                       : 96.0 kb/s
Channel(s)                     : 2 channels
Channel layout                 : L R
Sampling rate                  : 48.0 kHz
Frame rate                     : 23.438 FPS (2048 SPF)
Compression mode               : Lossy
Delay relative to video        : 20 ms
Stream size                    : 68.3 MiB (1%)
Language                       : English
Default                        : Yes
Forced                         : No

Category NBA/WNBA
Rating N/A
Size 4.53 GB
Show/Hide Files
1 file