Torrent’s details
Name EPL 2018/10/20 Chelsea Vs Manchester.United 2160p HEVC SDR 25fps 5.1 VIASAT4K EN
Image
Description General
Unique ID                      : 23846907913104804924417014473859631324 (0x11F0BF55CF11ACE697EC6681480988DC)
Complete name                  : F:Soccer20181020_Premier League_R09_Chelsea - Manchester United_VIASAT_4K_4.2.0-8bit.2160p.UHDTV_rgfootball[Skysports English Commentary Remux].mkv
Format                         : Matroska
Format version                 : Version 4 / Version 2
File size                      : 11.7 GiB
Duration                       : 2 h 1 min
Overall bit rate               : 13.8 Mb/s
Encoded date                   : UTC 2019-02-12 15:01:36
Writing application            : mkvmerge v30.0.0 ('Interstellar'wink.gif 64-bit
Writing library                : libebml v1.3.6 + libmatroska v1.4.9

Video
ID                             : 1
Format                         : HEVC
Format/Info                    : High Efficiency Video Coding
Format profile                 : Main@L5@Main
Codec ID                       : V_MPEGH/ISO/HEVC
Duration                       : 2 h 1 min
Bit rate                       : 11.9 Mb/s
Width                          : 3 840 pixels
Height                         : 2 160 pixels
Display aspect ratio           : 16:9
Frame rate mode                : Constant
Frame rate                     : 25.000 FPS
Standard                       : Component
Color space                    : YUV
Chroma subsampling             : 4:2:0
Bit depth                      : 8 bits
Bits/(Pixel*Frame)             : 0.057
Stream size                    : 10.0 GiB (86%)
Default                        : Yes
Forced                         : No
Color range                    : Limited

Audio #1
ID                             : 2
Format                         : AC-3
Format/Info                    : Audio Coding 3
Codec ID                       : A_AC3
Duration                       : 2 h 0 min
Bit rate mode                  : Constant
Bit rate                       : 384 kb/s
Channel(s)                     : 6 channels
Channel positions              : Front: L C R, Side: L R, LFE
Sampling rate                  : 48.0 kHz
Frame rate                     : 31.250 FPS (1536 SPF)
Bit depth                      : 16 bits
Compression mode               : Lossy
Stream size                    : 332 MiB (3%)
Title                          : SkysportsHD
Language                       : English
Service kind                   : Complete Main
Default                        : Yes
Forced                         : No

Audio #2
ID                             : 3
Format                         : MPEG Audio
Format version                 : Version 1
Format profile                 : Layer 2
Codec ID                       : A_MPEG/L2
Codec ID/Hint                  : MP2
Duration                       : 2 h 1 min
Bit rate mode                  : Constant
Bit rate                       : 384 kb/s
Channel(s)                     : 2 channels
Sampling rate                  : 48.0 kHz
Frame rate                     : 41.668 FPS (1152 SPF)
Compression mode               : Lossy
Delay relative to video        : 16 ms
Stream size                    : 333 MiB (3%)
Language                       : Swedish
Default                        : No
Forced                         : No

Audio #3
ID                             : 4
Format                         : MPEG Audio
Format version                 : Version 1
Format profile                 : Layer 2
Codec ID                       : A_MPEG/L2
Codec ID/Hint                  : MP2
Duration                       : 2 h 1 min
Bit rate mode                  : Constant
Bit rate                       : 384 kb/s
Channel(s)                     : 2 channels
Sampling rate                  : 48.0 kHz
Frame rate                     : 41.668 FPS (1152 SPF)
Compression mode               : Lossy
Delay relative to video        : 21 ms
Stream size                    : 333 MiB (3%)
Language                       : Norwegian
Default                        : No
Forced                         : No

Audio #4
ID                             : 5
Format                         : MPEG Audio
Format version                 : Version 1
Format profile                 : Layer 2
Codec ID                       : A_MPEG/L2
Codec ID/Hint                  : MP2
Duration                       : 2 h 1 min
Bit rate mode                  : Constant
Bit rate                       : 384 kb/s
Channel(s)                     : 2 channels
Sampling rate                  : 48.0 kHz
Frame rate                     : 41.668 FPS (1152 SPF)
Compression mode               : Lossy
Delay relative to video        : 21 ms
Stream size                    : 333 MiB (3%)
Language                       : Danish
Default                        : No
Forced                         : No

Audio #5
ID                             : 6
Format                         : MPEG Audio
Format version                 : Version 1
Format profile                 : Layer 2
Codec ID                       : A_MPEG/L2
Codec ID/Hint                  : MP2
Duration                       : 2 h 1 min
Bit rate mode                  : Constant
Bit rate                       : 384 kb/s
Channel(s)                     : 2 channels
Sampling rate                  : 48.0 kHz
Frame rate                     : 41.668 FPS (1152 SPF)
Compression mode               : Lossy
Delay relative to video        : 16 ms
Stream size                    : 333 MiB (3%)
Language                       : Finnish
Default                        : No
Forced                         : No

Ripper : Pepperoni

english commentary remux
Category EPL
Rating N/A
Size 11.66 GB
Show/Hide Files
1 file