Torrent’s details
Name MLB.2022.05.08.Pittsburgh.Pirates.vs.Cincinnati.Reds.720p.WEB.H.264-SPORTSNET
Description General
Unique ID : 9513057029773892963831482716091969168 (0x72825EC7A94413B75CB18920935EE90)
Complete name : sportsnet-mlb.2022.05.08.pittsburgh.pirates.vs.cincinnati.reds.720p.web.h264.mkv
Format : Matroska
Format version : Version 4
File size : 6.21 GiB
Duration : 2 h 39 min
Overall bit rate : 5 570 kb/s
Encoded date : UTC 2022-05-09 09:19:04
Writing application : mkvmerge v53.0.0 ('Fool's Gold'wink.gif 64-bit
Writing library : libebml v1.4.1 + libmatroska v1.6.2

Video
ID : 1
Format : AVC
Format/Info : Advanced Video Codec
Format profile : High@L4.1
Format settings : CABAC / 4 Ref Frames
Format settings, CABAC : Yes
Format settings, Reference frames : 4 frames
Codec ID : V_MPEG4/ISO/AVC
Duration : 2 h 39 min
Bit rate mode : Constant
Bit rate : 5 472 kb/s
Width : 1 280 pixels
Height : 720 pixels
Display aspect ratio : 16:9
Frame rate mode : Constant
Frame rate : 59.940 (59940/1000) FPS
Original frame rate : 59.940 (60000/1001) FPS
Color space : YUV
Chroma subsampling : 4:2:0
Bit depth : 8 bits
Scan type : Progressive
Bits/(Pixel*Frame) : 0.099
Stream size : 6.07 GiB (98%)
Default : Yes
Forced : No

Audio
ID : 2
Format : AAC LC
Format/Info : Advanced Audio Codec Low Complexity
Codec ID : A_AAC-2
Duration : 2 h 39 min
Bit rate : 125 kb/s
Channel(s) : 2 channels
Channel layout : L R
Sampling rate : 48.0 kHz
Frame rate : 46.875 FPS (1024 SPF)
Compression mode : Lossy
Delay relative to video : -149 ms
Stream size : 143 MiB (2%)
Language : English
Default : Yes
Forced : No
Category MLB/Baseball
Rating N/A
Size 6.21 GB
Show/Hide Files
1 file