Torrent’s details
Name NBA 2024 Dallas Mavericks vs Sacramento Kings 03 26 2160p50fps koukots
Image
Description General
Format                                   : Matroska
Format version                           : Version 4
File size                                : 21.6 GiB
Duration                                 : 2 h 17 min
Overall bit rate                         : 22.6 Mb/s
Frame rate                               : 50.000 FPS
Encoded date                             : 2024-03-27 17:40:50 UTC
Writing application                      : mkvmerge v83.0 ('Circle Of Friends'wink.gif 64-bit
Writing library                          : libebml v1.4.5 + libmatroska v1.7.1

Video
ID                                       : 1
Format                                   : HEVC
Format/Info                              : High Efficiency Video Coding
Format profile                           : Main 10@L5.2@Main
Codec ID                                 : V_MPEGH/ISO/HEVC
Duration                                 : 2 h 16 min
Bit rate                                 : 22.3 Mb/s
Width                                    : 3 840 pixels
Height                                   : 2 160 pixels
Display aspect ratio                     : 16:9
Frame rate mode                          : Constant
Frame rate                               : 50.000 FPS
Standard                                 : NTSC
Color space                              : YUV
Chroma subsampling                       : 4:2:0
Bit depth                                : 10 bits
Bits/(Pixel*Frame)                       : 0.054
Stream size                              : 21.3 GiB (99%)
Default                                  : Yes
Forced                                   : No
Color range                              : Limited
Color primaries                          : BT.709
Transfer characteristics                 : BT.709
Matrix coefficients                      : BT.709

Audio
ID                                       : 2
Format                                   : AAC LC
Format/Info                              : Advanced Audio Codec Low Complexity
Codec ID                                 : A_AAC-2
Duration                                 : 2 h 17 min
Bit rate                                 : 253 kb/s
Channel(s)                               : 2 channels
Channel layout                           : L R
Sampling rate                            : 48.0 kHz
Frame rate                               : 46.875 FPS (1024 SPF)
Compression mode                         : Lossy
Stream size                              : 248 MiB (1%)
Language                                 : Environment
Default                                  : Yes
Forced                                   : No

Category NBA/WNBA
Rating N/A
Size 21.58 GB
Show/Hide Files
1 file