Torrent’s details
Name NBA-2019-03-26_Sacramento Kings@Dallas Mavericks_720p.mp4
Description General
Complete name                  : F:115NBA-2019-03-26_SAC@DAL.mp4NBA-2019-03-26_SAC@DAL_FSSW-DAL_720pier.mp4
Format                         : MPEG-4
Format profile                 : Base Media
Codec ID                       : isom (isom/iso2/avc1/mp41)
File size                      : 4.22 GiB
Duration                       : 1 h 46 min
Overall bit rate mode          : Constant
Overall bit rate               : 5 660 kb/s
Writing application            : Lavf58.26.100

Video
ID                             : 1
Format                         : AVC
Format/Info                    : Advanced Video Codec
Format profile                 : High@L4
Format settings                : CABAC / 4 Ref Frames
Format settings, CABAC         : Yes
Format settings, Reference fra : 4 frames
Format settings, GOP           : M=3, N=120
Codec ID                       : avc1
Codec ID/Info                  : Advanced Video Coding
Duration                       : 1 h 46 min
Bit rate mode                  : Constant
Bit rate                       : 5 500 kb/s
Width                          : 1 280 pixels
Height                         : 720 pixels
Display aspect ratio           : 16:9
Frame rate mode                : Variable
Frame rate                     : 59.940 (60000/1001) FPS
Minimum frame rate             : 59.920 FPS
Maximum frame rate             : 60.000 FPS
Color space                    : YUV
Chroma subsampling             : 4:2:0
Bit depth                      : 8 bits
Scan type                      : Progressive
Bits/(Pixel*Frame)             : 0.100
Stream size                    : 4.11 GiB (97%)
Codec configuration box        : avcC

Audio
ID                             : 2
Format                         : AAC LC
Format/Info                    : Advanced Audio Codec Low Complexity
Codec ID                       : mp4a-40-2
Duration                       : 1 h 46 min
Bit rate mode                  : Constant
Bit rate                       : 126 kb/s
Channel(s)                     : 2 channels
Channel layout                 : L R
Sampling rate                  : 44.1 kHz
Frame rate                     : 43.066 FPS (1024 SPF)
Compression mode               : Lossy
Stream size                    : 95.8 MiB (2%)
Default                        : Yes
Alternate group                : 1

Text #1
ID                             : 1-CC1
Format                         : EIA-608
Muxing mode                    : SCTE 128 / DTVCC Transport
Muxing mode, more info         : Muxed in Video #1
Duration                       : 1 h 46 min
Bit rate mode                  : Constant
Stream size                    : 0.00 Byte (0%)
Encoded stream size            : 0.00 Byte (0%)
CaptionServiceName             : CC1

Text #2
ID                             : 1-1
Format                         : EIA-708
Muxing mode                    : SCTE 128 / DTVCC Transport
Muxing mode, more info         : Muxed in Video #1
Duration                       : 1 h 46 min
Bit rate mode                  : Constant
Stream size                    : 0.00 Byte (0%)
Encoded stream size            : 0.00 Byte (0%)

Text #3
ID                             : 1-3
Format                         : EIA-708
Muxing mode                    : SCTE 128 / DTVCC Transport
Muxing mode, more info         : Muxed in Video #1
Duration                       : 1 h 46 min
Bit rate mode                  : Constant
Stream size                    : 0.00 Byte (0%)
Encoded stream size            : 0.00 Byte (0%)

Text #4
ID                             : 1-4
Format                         : EIA-708
Muxing mode                    : SCTE 128 / DTVCC Transport
Muxing mode, more info         : Muxed in Video #1
Duration                       : 1 h 46 min
Bit rate mode                  : Constant
Stream size                    : 0.00 Byte (0%)
Encoded stream size            : 0.00 Byte (0%)

Category NBA/WNBA
Rating N/A
Size 4.22 GB
Show/Hide Files
1 file