Torrent’s details
Name IBSF.WC.2-Woman.Bobsleigh.Innsbruck.AUT.2020-12-19.WEB.X264.ENG-X
Description Complete name                            :IBSF.WC.2-Woman.Bobsleigh.Innsbruck.AUT.2020-12-19.WEB.X264.ENG-X.mp4
Format                                   : MPEG-4
Format profile                           : Base Media / Version 2
Codec ID                                 : mp42 (mp42/iso2/isom/avc1)
File size                                : 1.21 GiB
Duration                                 : 1 h 29 min
Overall bit rate mode                    : Variable
Overall bit rate                         : 1 926 kb/s
Encoded date                             : UTC 2020-12-19 08:32:47
Tagged date                              : UTC 2020-12-19 08:32:47

Video
ID                                       : 1
Format                                   : AVC
Format/Info                              : Advanced Video Codec
Format profile                           : Main@L4
Format settings                          : CABAC / 1 Ref Frames
Format settings, CABAC                   : Yes
Format settings, Reference frames        : 1 frame
Format settings, GOP                     : M=1, N=60
Codec ID                                 : avc1
Codec ID/Info                            : Advanced Video Coding
Duration                                 : 1 h 29 min
Bit rate mode                            : Variable
Bit rate                                 : 1 810 kb/s
Width                                    : 852 pixels
Height                                   : 480 pixels
Display aspect ratio                     : 16:9
Frame rate mode                          : Constant
Frame rate                               : 29.970 (30000/1001) FPS
Color space                              : YUV
Chroma subsampling                       : 4:2:0
Bit depth                                : 8 bits
Scan type                                : Progressive
Bits/(Pixel*Frame)                       : 0.148
Stream size                              : 1.13 GiB (93%)
Encoded date                             : UTC 2020-12-19 08:32:47
Tagged date                              : UTC 2020-12-19 08:32:47
Color range                              : Limited
Codec configuration box                  : avcC

Audio
ID                                       : 2
Format                                   : AAC LC
Format/Info                              : Advanced Audio Codec Low Complexity
Codec ID                                 : mp4a-40-2
Duration                                 : 1 h 29 min
Bit rate mode                            : Constant
Bit rate                                 : 128 kb/s
Channel(s)                               : 2 channels
Channel layout                           : L R
Sampling rate                            : 44.1 kHz
Frame rate                               : 43.066 FPS (1024 SPF)
Compression mode                         : Lossy
Stream size                              : 80.6 MiB (7%)
Encoded date                             : UTC 2020-12-19 08:32:47
Tagged date                              : UTC 2020-12-19 08:32:47
Category WinterSport
Rating N/A
Size 1.21 GB
Show/Hide Files
1 file