Torrent’s details
Name WTA Madrid Open 2019 Semi Final Belinda Bencic Vs Simona Halep | 720p | 25fps | EN
Description General
Unique ID                                : 94928641365583884844337406537646514914 (0x476A975F584A5C02AFA6C8B0A280A2E2)
Complete name                            : WTA Madrid Open 2019 Semi Final Belinda Bencic Vs Simona Halep 720p WEB h264-PYRAMiD/WTA Madrid Open 2019 Semi Final Belinda Bencic Vs Simona Halep 720p WEB h264-PYRAMiD mkv
Format                                   : Matroska
Format version                           : Version 4 / Version 2
File size                                : 2.30 GiB
Duration                                 : 2 h 13 min
Overall bit rate                         : 2 465 kb/s
Encoded date                             : UTC 2019-05-12 07:13:29
Writing application                      : mkvmerge v9.8.0 ('Kuglblids'wink.gif 64bit
Writing library                          : libebml v1.3.4 + libmatroska v1.4.5

Video
ID                                       : 1
Format                                   : AVC
Format/Info                              : Advanced Video Codec
Format profile                           : Main@L3.1
Format settings, CABAC                   : Yes
Format settings, ReFrames                : 1 frame
Format settings, GOP                     : M=1, N=50
Codec ID                                 : V_MPEG4/ISO/AVC
Duration                                 : 2 h 13 min
Bit rate                                 : 2 333 kb/s
Width                                    : 1 280 pixels
Height                                   : 720 pixels
Display aspect ratio                     : 16:9
Frame rate mode                          : Constant
Frame rate                               : 25.000 FPS
Color space                              : YUV
Chroma subsampling                       : 4:2:0
Bit depth                                : 8 bits
Scan type                                : Progressive
Bits/(Pixel*Frame)                       : 0.101
Stream size                              : 2.18 GiB (95%)
Language                                 : English
Default                                  : Yes
Forced                                   : Yes

Audio
ID                                       : 2
Format                                   : AAC
Format/Info                              : Advanced Audio Codec
Format profile                           : LC
Codec ID                                 : A_AAC
Duration                                 : 2 h 13 min
Bit rate                                 : 130 kb/s
Channel(s)                               : 2 channels
Channel positions                        : Front: L R
Sampling rate                            : 44.1 kHz
Frame rate                               : 43.066 FPS (1024 spf)
Compression mode                         : Lossy
Delay relative to video                  : -12 ms
Stream size                              : 124 MiB (5%)
Language                                 : English
Default                                  : Yes
Forced                                   : Yes
Category Tennis
Rating N/A
Size 2.30 GB
Show/Hide Files
1 file