Torrent’s details
Name AEW.WrestleDream.2023.PPV.720p.WEB.h264-HEEL
Description The 2023 WrestleDream was the inaugural WrestleDream professional wrestling pay-per-view (PPV) event produced by the American promotion All Elite Wrestling (AEW). It took place on October 1, 2023, at Climate Pledge Arena in Seattle, Washington. The event was a tribute show in honor of New Japan Pro-Wrestling (NJPW) founder Antonio Inoki; it took place on the one-year anniversary of his death.



General
Complete name                            : AEW.WrestleDream.2023.PPV.720p.WEB.h264-HEEL.mp4
Format                                   : MPEG-4
Format profile                           : Base Media
Codec ID                                 : isom (isom/iso2/avc1/mp41)
File size                                : 3.78 GiB
Duration                                 : 3 h 58 min
Overall bit rate                         : 2 266 kb/s
Frame rate                               : 30.000 FPS
Writing application                      : Lavf58.32.104

Video
ID                                       : 1
Format                                   : AVC
Format/Info                              : Advanced Video Codec
Format profile                           : Main@L3.1
Format settings                          : CABAC / 4 Ref Frames
Format settings, CABAC                   : Yes
Format settings, Reference frames        : 4 frames
Codec ID                                 : avc1
Codec ID/Info                            : Advanced Video Coding
Duration                                 : 3 h 58 min
Bit rate                                 : 2 064 kb/s
Width                                    : 1 280 pixels
Height                                   : 720 pixels
Display aspect ratio                     : 16:9
Frame rate mode                          : Variable
Frame rate                               : 30.000 FPS
Minimum frame rate                       : 29.412 FPS
Maximum frame rate                       : 30.303 FPS
Color space                              : YUV
Chroma subsampling                       : 4:2:0
Bit depth                                : 8 bits
Scan type                                : Progressive
Bits/(Pixel*Frame)                       : 0.075
Stream size                              : 3.44 GiB (91%)
Codec configuration box                  : avcC

Audio
ID                                       : 2
Format                                   : AAC LC
Format/Info                              : Advanced Audio Codec Low Complexity
Codec ID                                 : mp4a-40-2
Duration                                 : 3 h 58 min
Bit rate mode                            : Constant
Bit rate                                 : 192 kb/s
Channel(s)                               : 2 channels
Channel layout                           : L R
Sampling rate                            : 48.0 kHz
Frame rate                               : 46.875 FPS (1024 SPF)
Compression mode                         : Lossy
Stream size                              : 326 MiB (8%)
Default                                  : Yes
Alternate group                          : 1

Text
ID                                       : 1-CC3
Format                                   : EIA-608
Muxing mode                              : SCTE 128 / DTVCC Transport
Muxing mode, more info                   : Muxed in Video #1
Duration                                 : 3 h 58 min
Start time (commands)                    : 5124095 h
Bit rate mode                            : Constant
Stream size                              : 0.00 Byte (0%)

Category Wrestling/Grapling
Rating N/A
Size 3.78 GB
Show/Hide Files
1 file