Torrent’s details
Name NBA-2019-04-06_Brooklyn Nets@Milwaukee Bucks_720p.mkv
Description General
Unique ID                      : 225040409290341605929408928935398560084 (0xA94D34CFBED0D45F98E8DCAB53D35154)
Complete name                  : F:115NBA-2019-04-06_BKN@MIL.mkvNBA-2019-04-06_BKN@MIL_720pier.ru.mkv
Format                         : Matroska
Format version                 : Version 4
File size                      : 4.72 GiB
Duration                       : 1 h 34 min
Overall bit rate               : 7 162 kb/s
Encoded date                   : UTC 2019-04-07 10:16:09
Writing application            : mkvmerge v16.0.0 ('Protest'wink.gif 64-bit
Writing library                : libebml v1.3.5 + libmatroska v1.4.8

Video
ID                             : 1
Format                         : AVC
Format/Info                    : Advanced Video Codec
Format profile                 : High@L3.2
Format settings                : CABAC / 4 Ref Frames
Format settings, CABAC         : Yes
Format settings, Reference fra : 4 frames
Codec ID                       : V_MPEG4/ISO/AVC
Duration                       : 1 h 34 min
Bit rate mode                  : Constant
Bit rate                       : 7 000 kb/s
Width                          : 1 280 pixels
Height                         : 720 pixels
Display aspect ratio           : 16:9
Frame rate mode                : Variable
Frame rate                     : 59.854 FPS
Original frame rate            : 59.940 (60000/1001) FPS
Color space                    : YUV
Chroma subsampling             : 4:2:0
Bit depth                      : 8 bits
Scan type                      : Progressive
Bits/(Pixel*Frame)             : 0.127
Stream size                    : 4.64 GiB (98%)
Default                        : Yes
Forced                         : No

Audio
ID                             : 2
Format                         : AAC LC
Format/Info                    : Advanced Audio Codec Low Complexity
Codec ID                       : A_AAC-2
Duration                       : 1 h 34 min
Bit rate                       : 125 kb/s
Channel(s)                     : 2 channels
Channel layout                 : L R
Sampling rate                  : 44.1 kHz
Frame rate                     : 43.066 FPS (1024 SPF)
Compression mode               : Lossy
Stream size                    : 84.7 MiB (2%)
Default                        : Yes
Forced                         : No

Category NBA/WNBA
Rating N/A
Size 4.72 GB
Show/Hide Files
1 file